#TITLE:Wild Rush;
#SUBTITLE:(Crisis Style);
#ARTIST:DJ Potatoe;
#TITLETRANSLIT:;
#SUBTITLETRANSLIT:;
#ARTISTTRANSLIT:;
#CREDIT:;
#BANNER:Wild Rush-banner.png;
#BACKGROUND:Wild Rush-bg.png;
#LYRICSPATH:;
#CDTITLE:;
#MUSIC:Wild Rush mix.mp3;
#MUSICLENGTH:88.920;
#OFFSET:-0.080;
#SAMPLESTART:55.105;
#SAMPLELENGTH:12.000;
#SELECTABLE:YES;
#BPMS:0.000=124.500;
#STOPS:;
#BGCHANGES:;
#FIRSTBEAT:16.000;

#LASTBEAT:183.000;

#SONGFILENAME:Songs/ERICth MIX 2nd Style/Wild Rush remix/wildrush.sm;

#HASMUSIC:1;

#HASBANNER:1;


//---------------dance-single - MANIAC----------------
#NOTES:
     dance-single:
     MANIAC:
     hard:
     8:
     0.411,0.437,0.157,0.157,0.000,228.000,14.000,14.000,0.000,0.000:

0000
0000
0000
0000
,
0000
0000
0000
0000
,
0000
0000
0000
0000
,
0000
0000
0000
0000
,
0100
0001
0100
0000
0100
1000
0100
0000
,
0100
1000
0100
0001
0100
0010
0100
0000
,
0010
1000
0010
0000
0010
0001
0010
0000
,
0010
1000
0010
0001
0010
0100
0010
0000
,
0100
0001
0010
0000
0100
1000
0010
0000
,
0100
0001
0010
0100
1000
0010
0100
0000
,
0010
0001
0100
0000
0010
1000
0100
0000
,
0110
0000
0110
0000
0000
1001
1001
0000
,
1000
0100
0001
0100
1000
0010
0001
0010
,
1000
0100
0001
0100
1000
0010
0001
0010
,
1000
0100
1000
0010
1000
0100
1000
0010
,
1000
0100
1000
0010
1000
0100
1000
0100
,
0010
0001
0010
0001
0010
0001
0010
0001
,
0010
0001
1000
0001
0010
0001
0100
0001
,
1000
0001
0100
0010
0100
0001
0010
1000
,
0010
0001
0100
0001
0010
0001
0010
0000
,
2000
0100
0000
0100
0000
0100
3000
0100
,
0020
0001
0000
0001
0000
0001
0030
0001
,
0200
0010
0000
0010
0000
0010
0300
0010
,
0002
1000
0000
1000
0000
1000
0003
1000
,
2000
0100
0000
0100
0000
0100
3000
0100
,
0020
0001
0000
0001
0000
0001
0030
0001
,
0200
0010
0000
0010
0000
0010
0300
0010
,
0002
1000
0000
1000
0000
1000
0003
1000
,
0000
0000
0000
0000
0000
0110
0110
0000
,
0100
0001
0100
0000
0100
1000
0100
0000
,
0100
1000
0100
0001
0100
0010
0100
0000
,
0010
1000
0010
0000
0010
0001
0010
0000
,
0010
1000
0010
0001
0010
0100
0010
0000
,
0100
0001
0010
0000
0100
1000
0010
0000
,
0100
0001
0010
0100
1000
0010
0100
0000
,
0010
0001
0100
0000
0010
1000
0100
0000
,
0110
0110
1100
0011
,
2000
0000
0000
0001
,
3002
0000
0000
0010
,
0023
0000
0000
0100
,
0230
0000
0000
0000
,
1300
0100
0001
0100
1000
0010
1000
0000
,
0001
0100
1000
0100
0001
0010
0001
0000
,
1001
0000
0000
0000
,
0000
0000
0000
0000
,
0220
0000
0330
0000
0000
1001
1001
0000;

//---------------dance-single - ANOTHER----------------
#NOTES:
     dance-single:
     ANOTHER:
     medium:
     4:
     0.265,0.334,0.157,0.011,0.000,150.000,14.000,1.000,0.000,0.000:

0000
0000
0000
0000
,
0000
0000
0000
0000
,
0000
0000
0000
0000
,
0000
0000
0000
0000
,
1001
0100
0000
1000
,
0001
1000
0000
0100
,
0010
0100
0000
1000
,
0001
0100
0000
0001
,
1000
0100
0000
0010
,
0100
0010
0000
1001
,
0001
0000
1000
0000
,
0001
0000
1000
0000
0001
1000
1001
0000
,
0001
0000
0000
1000
,
0000
0010
0000
0100
,
0010
0001
1000
0000
,
0100
1000
0010
0000
,
0001
0100
1000
0010
,
1000
0100
0001
0010
,
0100
0010
0100
0010
,
0110
0000
0110
0000
0000
0110
0110
0000
,
0001
1000
0000
0100
,
0010
0001
0000
1000
,
0100
0001
0000
1000
,
0000
0010
0000
0100
,
1000
0000
0001
0000
0000
0010
0001
0000
,
0001
0000
1000
0000
0000
0100
1000
0000
,
0001
0000
1000
0000
0000
0010
0100
0000
,
0020
0000
0000
0000
,
0000
0000
0000
0030
0000
0110
0110
0000
,
0001
0000
0000
0000
,
1000
0000
0000
0000
,
0001
1000
0001
0000
1000
0001
1000
0000
,
0001
1000
0001
0000
1000
0001
1000
0000
,
0010
0100
0010
0000
0100
0010
0100
0000
,
0010
0100
0010
0000
0100
0010
0100
0000
,
0010
1000
0001
0000
0010
0001
1000
0000
,
0010
1000
0001
0000
0010
0001
1000
0000
,
0100
1000
0001
0000
0100
0001
1000
0000
,
0100
1000
0001
0000
0100
0001
1000
0000
,
0010
1000
0100
0000
0010
0001
0100
0000
,
0010
1000
0100
0000
0010
0001
0100
0000
,
1001
0100
0010
0100
,
1001
0010
0100
0010
,
1001
0000
0000
0000
,
0000
0000
0000
0000
,
0000
0000
0000
0000
0000
0110
0110
0000;

//---------------dance-single - BASIC----------------
#NOTES:
     dance-single:
     BASIC:
     easy:
     3:
     0.095,0.129,0.034,0.079,0.000,49.000,3.000,7.000,0.000,0.000:

0000
0000
0000
0000
,
0000
0000
0000
0000
,
0000
0000
0000
0000
,
0000
0000
0000
0000
,
0110
0000
0000
0000
,
0000
0000
0000
0000
,
0010
0000
0000
0000
,
0000
0000
0000
0000
,
1000
0000
0000
0000
,
0000
0000
0000
0000
,
0101
0000
0000
0000
,
0000
0000
0000
0100
,
0100
0000
0000
0000
,
0010
0000
0000
0100
,
0100
0000
0000
0000
,
1000
0000
0000
0100
,
0100
0000
0000
0000
,
0001
0000
0000
0100
,
0100
0000
0000
0000
,
0020
0000
0000
0000
,
0000
0000
0000
0000
,
0000
0000
0000
0030
,
2000
0000
0000
0000
,
0000
0000
0000
3000
,
0020
0000
0000
0030
,
0002
0000
0000
0003
,
0020
0000
0000
0030
,
2000
0000
0000
3000
,
0000
0000
0000
0110
,
0001
0000
0000
0000
,
0000
0000
0000
0000
,
0001
1000
0001
1000
,
0000
0000
0000
0000
,
0010
0100
0010
0100
,
0000
0000
0000
0000
,
0010
0001
0010
0001
,
0000
0000
0000
0000
,
1000
0100
1000
0100
,
0000
0000
0000
0000
,
0010
1000
0010
1000
,
0000
0000
0000
0000
,
0001
0000
0001
0000
,
0100
0000
0100
0000
,
2000
0000
0000
0000
,
0000
0000
0000
0000
,
0000
0000
0000
3010;
